<?xml version="1.0" standalone="no"?>
<!DOCTYPE svg PUBLIC "-//W3C//DTD SVG 1.1//EN" "http://www.w3.org/Graphics/SVG/1.1/DTD/svg11.dtd" >
<svg xmlns="http://www.w3.org/2000/svg">
<metadata>Generated by IcoMoon</metadata>
<defs>
<font id="masticon" horiz-adv-x="1024">
<font-face units-per-em="1024" ascent="960" descent="-64" />
<missing-glyph horiz-adv-x="1024" />
<glyph unicode="&#x20;" horiz-adv-x="512" d="" />
<glyph unicode="&#xe900;" glyph-name="chevron-right" d="M704 425.411c0.045-8.383-1.568-16.693-4.749-24.454s-7.872-14.819-13.798-20.771l-255.826-254.786c-5.964-5.939-13.043-10.65-20.834-13.862-7.791-3.219-16.142-4.87-24.575-4.87s-16.783 1.651-24.575 4.87c-7.791 3.213-14.871 7.923-20.834 13.862s-10.694 12.992-13.921 20.749c-3.228 7.757-4.888 16.077-4.888 24.474 0 8.403 1.661 16.717 4.888 24.48 3.227 7.757 7.958 14.81 13.921 20.749l211.695 209.56-203.381 210.198c-6.542 5.86-11.8 13-15.444 20.976s-5.597 16.614-5.737 25.376c-0.14 8.762 1.538 17.458 4.927 25.545s8.417 15.389 14.77 21.452c6.353 6.063 13.892 10.756 22.149 13.784s17.051 4.327 25.835 3.816c8.783-0.511 17.366-2.822 25.212-6.788s14.786-9.501 20.386-16.26l246.872-254.787c11.277-11.648 17.677-27.134 17.907-43.313z" />
<glyph unicode="&#xe901;" glyph-name="chevron-left" d="M320 425.411c-0.045-8.383 1.568-16.693 4.749-24.454s7.872-14.819 13.798-20.771l255.826-254.786c5.964-5.939 13.043-10.65 20.834-13.862 7.791-3.219 16.142-4.87 24.575-4.87s16.783 1.651 24.575 4.87c7.791 3.213 14.871 7.923 20.834 13.862s10.694 12.992 13.921 20.749c3.228 7.757 4.888 16.077 4.888 24.474 0 8.403-1.661 16.717-4.888 24.48-3.227 7.757-7.958 14.81-13.921 20.749l-211.695 209.56 203.381 210.198c6.542 5.86 11.8 13 15.444 20.976s5.597 16.614 5.737 25.376c0.14 8.762-1.538 17.458-4.927 25.545s-8.417 15.389-14.77 21.452c-6.353 6.063-13.892 10.756-22.149 13.784s-17.051 4.327-25.835 3.816c-8.783-0.511-17.366-2.822-25.212-6.788s-14.786-9.501-20.386-16.26l-246.872-254.787c-11.277-11.648-17.677-27.134-17.907-43.313z" />
<glyph unicode="&#xe902;" glyph-name="arrow-up" d="M542.752 840.229l230.665-221.795c16.986-16.332 16.986-42.813 0-59.145s-44.525-16.333-61.511 0l-157.244 151.197v-667.831c0-23.565-19.103-42.662-42.667-42.662s-42.666 19.098-42.666 42.662v667.831l-157.246-151.197c-16.986-16.333-44.525-16.333-61.51 0s-16.986 42.813 0 59.145l230.663 221.792c7.763 8.074 18.675 13.098 30.76 13.098s22.994-5.023 30.756-13.094z" />
<glyph unicode="&#xe903;" glyph-name="arrow-right" d="M925.562 457.419l-221.795 230.665c-16.332 16.986-42.813 16.986-59.145 0s-16.333-44.525 0-61.511l151.197-157.244h-667.831c-23.565 0-42.662-19.103-42.662-42.667s19.098-42.666 42.662-42.666h667.831l-151.197-157.246c-16.333-16.986-16.333-44.525 0-61.51s42.813-16.986 59.145 0l221.792 230.663c8.074 7.763 13.098 18.675 13.098 30.76s-5.023 22.994-13.094 30.756z" />
<glyph unicode="&#xe904;" glyph-name="medal" horiz-adv-x="951" d="M943.32 150.165l-143.024 246.012c29.268 53.541 44.515 113.562 44.332 174.523 0 97.591-38.923 191.185-108.204 260.192s-163.248 107.775-261.23 107.775c-97.979 0-191.946-38.768-261.228-107.775s-108.205-162.601-108.205-260.192c-0.182-60.961 15.065-120.982 44.332-174.523l-143.023-246.012c-4.641-8.005-7.080-17.090-7.071-26.335s2.466-18.322 7.123-26.32c4.657-7.998 11.349-14.629 19.401-19.229 8.052-4.597 17.18-7 26.462-6.963h151.468l77.053-129.313c2.597-4.286 5.796-8.181 9.499-11.568 9.784-9.392 22.828-14.665 36.416-14.716h7.389c7.967 1.086 15.581 3.972 22.258 8.433 6.677 4.465 12.24 10.39 16.267 17.324l101.859 174.523 101.859-176.099c4.085-6.835 9.677-12.657 16.351-17.031 6.674-4.37 14.256-7.175 22.177-8.203h7.387c13.769-0.080 27.030 5.2 36.944 14.72 3.547 3.193 6.576 6.916 8.971 11.037l77.052 129.317h151.468c9.3-0.037 18.443 2.373 26.507 6.989s14.76 11.271 19.408 19.295c4.933 8.174 7.537 17.532 7.537 27.070s-2.604 18.896-7.537 27.070zM326.894 69.741l-46.971 78.321c-4.625 7.771-11.183 14.226-19.040 18.736-7.858 4.513-16.75 6.93-25.819 7.025h-91.303l75.47 130.363c51.97-49.88 117.47-83.504 188.412-96.72l-80.749-137.724zM475.195 307.868c-52.191 0-103.208 15.415-146.603 44.295s-77.217 69.928-97.19 117.954c-19.972 48.026-25.198 100.875-15.016 151.859s35.314 97.817 72.218 134.575c36.905 36.758 83.924 61.79 135.113 71.932 51.185 10.141 104.243 4.936 152.463-14.957 48.216-19.893 89.428-53.581 118.426-96.804 28.994-43.223 44.471-94.039 44.471-146.023 0-69.709-27.802-136.561-77.286-185.852-49.488-49.291-116.608-76.979-186.595-76.979zM715.326 173.823c-9.070-0.095-17.96-2.512-25.819-7.025-7.856-4.509-14.413-10.964-19.039-18.736l-46.972-78.321-80.219 139.301c70.693 13.488 135.951 47.082 187.886 96.724l75.469-130.366-91.304-1.576z" />
<glyph unicode="&#xe905;" glyph-name="press" horiz-adv-x="1113" d="M825.731 824.889h176.506c61.244 0 111.358-51.199 110.801-113.778v-682.665c0-62.58-50.114-113.78-111.358-113.78h-389.761v118.9c136.41 23.32 245.551 131.98 272.273 270.22 6.683 34.7-21.157 65.99-55.122 65.99-26.726 0-48.996-19.91-54.566-47.215-21.157-102.97-110.24-180.34-217.707-180.34-107.462 0-196.551 77.37-218.267 180.34-5.566 27.305-27.282 47.215-54.565 47.215-33.964 0-61.804-31.29-55.122-65.99 26.725-138.24 135.862-246.33 272.275-270.22v-118.9h-389.759c-61.246 0-111.36 51.2-111.36 113.78v682.665c0 62.578 50.114 113.778 111.36 113.778h176.508l68.485 76.801c21.158 23.323 51.221 36.977 82.405 36.977h236.081c31.187 0 61.249-13.654 81.849-36.977l69.044-76.801zM556.798 256.002c61.249 0 111.358 51.2 111.358 113.775v227.556c0 62.578-50.109 113.778-111.358 113.778s-111.358-51.2-111.358-113.778v-227.556c0-62.575 50.109-113.775 111.358-113.775z" />
<glyph unicode="&#xe906;" glyph-name="hat" d="M526.553 777.267c-9.97 2.83-20.488 2.827-30.462-0.011-21.238-6.043-42.676-11.641-64.188-17.257-95.995-25.064-201.692-52.662-292.11-126.444l-42.63-34.788c-33.994-27.74-33.977-82.065 0.047-109.779l41.941-34.161c30.985-25.235 63.277-44.978 96.369-61.075v-189.604c0-46.42 28.476-88.084 71.725-104.948l163.84-63.873c26.313-10.26 55.517-10.26 81.83 0l163.84 63.873c43.25 16.863 71.725 58.528 71.725 104.948v189.264c32.874 16.011 64.95 35.656 95.728 60.768l6.672 5.444v-202.478c0-16.966 13.754-30.72 30.72-30.72s30.72 13.754 30.72 30.72v286.721c-0.008 20.514-8.52 41.023-25.53 54.879l-41.939 34.16c-91.075 74.179-201.216 102.905-294.24 127.166-21.463 5.598-42.856 11.178-64.057 17.194zM360.413 387.718c-15.558 6.767-33.656-0.36-40.423-15.917-6.767-15.561 0.36-33.657 15.918-40.423 52.341-22.766 106.522-41.39 162.047-55.644 9.675-2.482 19.825-2.478 29.499 0.012 55.374 14.25 109.396 32.879 161.571 55.644 15.548 6.787 22.655 24.891 15.868 40.444-6.787 15.548-24.891 22.655-40.444 15.868-49.013-21.385-99.754-38.9-151.765-52.314-52.171 13.418-103.084 30.937-152.271 52.33z" />
<glyph unicode="&#xe907;" glyph-name="clock" horiz-adv-x="983" d="M143.36 420.986c0 192.285 155.877 348.161 348.16 348.161s348.16-155.877 348.16-348.161c0-192.283-155.877-348.16-348.16-348.16s-348.16 155.877-348.16 348.16zM522.24 625.787c0 16.966-13.754 30.72-30.72 30.72s-30.72-13.754-30.72-30.72v-204.801c0-10.592 5.456-20.435 14.438-26.051l122.88-76.8c14.389-8.991 33.341-4.616 42.332 9.769 8.991 14.389 4.62 33.341-9.769 42.332l-108.442 67.777v187.774z" />
<glyph unicode="&#xe908;" glyph-name="book" d="M491.102 744.132c-114.715 68.83-255.014 80.072-379.227 30.387-18.092-7.237-29.955-24.76-29.955-44.245v-477.547c0-31.99 32.308-53.862 62.008-41.98 101.718 40.686 216.608 31.478 310.548-24.887l46.502-27.898c3.547-2.13 7.34-3.060 11.022-2.994 3.682-0.066 7.475 0.864 11.022 2.994l46.502 27.898c93.942 56.365 208.83 65.573 310.546 24.887 29.7-11.882 62.009 9.99 62.009 41.98v477.547c0 19.485-11.862 37.008-29.954 44.245-124.215 49.685-264.511 38.443-379.228-30.387l-20.898-12.538-20.898 12.538zM542.72 646.271c0 16.966-13.754 30.72-30.72 30.72s-30.72-13.754-30.72-30.72v-389.121c0-16.966 13.754-30.72 30.72-30.72s30.72 13.754 30.72 30.72v389.121zM132.089 132.541c82.897 48.357 185.404 48.357 268.301 0l44.533-25.981c41.447-24.175 92.705-24.175 134.152 0l44.532 25.981c82.899 48.357 185.405 48.357 268.304 0l4.207-2.454c14.655-8.552 19.603-27.361 11.055-42.017s-27.357-19.603-42.013-11.055l-4.207 2.454c-63.771 37.2-142.619 37.2-206.389 0l-44.532-25.977c-60.58-35.34-135.487-35.34-196.067 0l-44.534 25.977c-63.767 37.2-142.618 37.2-206.385 0l-4.209-2.454c-14.655-8.548-33.465-3.6-42.014 11.055s-3.599 33.464 11.056 42.017l4.208 2.454z" />
<glyph unicode="&#xe909;" glyph-name="play" horiz-adv-x="983" d="M789.135 358.886c40.628 31.437 40.628 92.77 0 124.207-122.778 95.002-259.879 169.883-406.17 221.84l-26.725 9.492c-51.129 18.159-105.135-16.434-112.057-69.213-19.34-147.464-19.34-300.982 0-448.446 6.921-52.781 60.928-87.372 112.057-69.214l26.725 9.49c146.291 51.958 283.392 126.841 406.17 221.843z" />
<glyph unicode="&#xe90a;" glyph-name="chevron-up" d="M532.079 597.333c-8.384 0.049-16.695-1.565-24.457-4.748s-14.818-7.872-20.77-13.8l-254.786-255.824c-5.939-5.965-10.65-13.043-13.865-20.834s-4.868-16.141-4.868-24.576c0-8.431 1.654-16.785 4.868-24.576s7.925-14.869 13.865-20.834c5.939-5.961 12.989-10.692 20.749-13.918 7.759-3.23 16.076-4.89 24.475-4.89s16.716 1.66 24.475 4.89c7.76 3.226 14.81 7.957 20.749 13.918l209.564 211.695 210.197-203.379c5.858-6.541 13.001-11.802 20.975-15.445s16.614-5.598 25.378-5.734c8.759-0.141 17.455 1.536 25.545 4.924 8.085 3.392 15.39 8.418 21.453 14.771s10.752 13.892 13.781 22.148c3.029 8.256 4.326 17.054 3.819 25.835-0.512 8.785-2.825 17.365-6.788 25.212-3.968 7.846-9.502 14.788-16.26 20.386l-254.788 246.872c-11.648 11.276-27.136 17.679-43.311 17.908z" />
<glyph unicode="&#xe90b;" glyph-name="dash" d="M0 426.667c0 35.346 28.654 64 64 64h896c35.347 0 64-28.654 64-64s-28.653-64-64-64h-896c-35.346 0-64 28.654-64 64z" />
<glyph unicode="&#xe90c;" glyph-name="more" d="M224 426.667c0-52.992-43.008-96-96-96s-96 43.008-96 96c0 52.992 43.008 96 96 96s96-43.008 96-96zM608 426.667c0-52.992-43.008-96-96-96s-96 43.008-96 96c0 52.992 43.008 96 96 96s96-43.008 96-96zM896 330.667c52.992 0 96 43.008 96 96s-43.008 96-96 96c-52.992 0-96-43.008-96-96s43.008-96 96-96z" />
<glyph unicode="&#xe90d;" glyph-name="attach_file_24px_rounded-1" d="M682.667 650.765v-451.413c0-89.173-65.28-168.533-154.027-177.067-101.973-9.813-187.307 69.973-187.307 169.813v527.36c0 55.893 40.107 106.667 95.573 112.213 64 6.4 117.76-43.52 117.76-106.24v-448c0-23.467-19.2-42.667-42.667-42.667s-42.667 19.2-42.667 42.667v373.333c0 17.493-14.507 32-32 32s-32-14.507-32-32v-367.36c0-55.893 40.107-106.667 95.573-112.213 64-6.4 117.76 43.52 117.76 106.24v440.747c0 89.173-65.28 168.533-154.027 177.067-101.547 9.813-187.307-69.973-187.307-169.813v-523.52c0-122.453 89.6-232.107 211.627-243.627 140.373-12.8 257.707 96.427 257.707 233.813v458.667c0 17.493-14.507 32-32 32s-32-14.507-32-32z" />
<glyph unicode="&#xe90e;" glyph-name="biology" d="M469.333 42.667v181.76c-20.053-7.253-41.387-11.093-64-11.093-106.667 0-192 85.333-192 192 0 54.187 21.333 102.827 58.027 137.813-9.813 23.040-15.36 48.64-15.36 75.52 0 106.667 85.333 192 192 192 66.56 0 125.44-34.133 160-85.333 3.413 0 6.827 0 10.667 0 30.818 0 61.333-6.070 89.805-17.863 28.467-11.793 54.34-29.079 76.13-50.869s39.074-47.66 50.867-76.131c11.793-28.471 17.865-58.986 17.865-89.803s-6.071-61.333-17.865-89.805c-11.793-28.467-29.077-54.34-50.867-76.13s-47.663-39.074-76.13-50.867c-28.471-11.793-58.987-17.865-89.805-17.865-21.333 0-42.667 2.987-64 8.96v-222.293h-85.333z" />
<glyph unicode="&#xe90f;" glyph-name="burger" d="M128 640c0 23.564 19.103 42.667 42.667 42.667h682.667c23.565 0 42.667-19.103 42.667-42.667s-19.102-42.667-42.667-42.667h-682.667c-23.564 0-42.667 19.103-42.667 42.667zM128 426.667c0 23.565 19.103 42.667 42.667 42.667h682.667c23.565 0 42.667-19.102 42.667-42.667s-19.102-42.667-42.667-42.667h-682.667c-23.564 0-42.667 19.102-42.667 42.667zM128 213.334c0 23.565 19.103 42.667 42.667 42.667h682.667c23.565 0 42.667-19.102 42.667-42.667s-19.102-42.667-42.667-42.667h-682.667c-23.564 0-42.667 19.102-42.667 42.667z" />
<glyph unicode="&#xe910;" glyph-name="logout" d="M128.213 853.334h426.667c33.95 0 66.505-13.486 90.509-37.49s37.491-56.562 37.491-90.51v-128c0-11.316-4.497-22.168-12.497-30.17s-18.854-12.497-30.17-12.497c-11.315 0-22.17 4.495-30.17 12.497s-12.497 18.854-12.497 30.17v128c0 11.316-4.497 22.168-12.497 30.17s-18.854 12.497-30.17 12.497h-426.667c-11.316 0-22.168-4.495-30.17-12.497s-12.497-18.854-12.497-30.17v-597.333c0-11.315 4.495-22.17 12.497-30.17s18.854-12.497 30.17-12.497h426.667c11.315 0 22.17 4.497 30.17 12.497s12.497 18.854 12.497 30.17v128c0 11.315 4.497 22.17 12.497 30.17s18.854 12.497 30.17 12.497c11.315 0 22.17-4.497 30.17-12.497s12.497-18.854 12.497-30.17v-128c0-33.946-13.487-66.505-37.491-90.509s-56.559-37.491-90.509-37.491h-426.667c-33.947 0-66.505 13.487-90.509 37.491s-37.49 56.563-37.49 90.509v597.333c0 33.948 13.486 66.505 37.49 90.51s56.562 37.49 90.509 37.49zM524.71 396.489c-8.004 8-12.497 18.854-12.497 30.17s4.493 22.169 12.497 30.17c8 8.002 18.854 12.497 30.17 12.497h323.84l-98.133 97.707c-3.981 3.978-7.134 8.701-9.289 13.899-2.15 5.198-3.26 10.769-3.26 16.395s1.109 11.197 3.26 16.395c2.155 5.198 5.308 9.921 9.289 13.899 3.977 3.978 8.7 7.134 13.897 9.287 5.201 2.153 10.769 3.261 16.397 3.261 5.623 0 11.196-1.108 16.393-3.261 5.201-2.153 9.92-5.309 13.901-9.287l170.667-170.667c3.883-4.058 6.929-8.842 8.96-14.080 4.267-10.385 4.267-22.037 0-32.427-2.031-5.235-5.077-10.022-8.96-14.080l-170.667-170.667c-3.968-3.998-8.687-7.172-13.884-9.34-5.201-2.163-10.778-3.281-16.41-3.281s-11.209 1.118-16.41 3.281c-5.197 2.167-9.92 5.342-13.884 9.34-3.998 3.968-7.172 8.687-9.34 13.884-2.167 5.201-3.281 10.778-3.281 16.41s1.114 11.209 3.281 16.41c2.167 5.201 5.342 9.92 9.34 13.884l98.133 97.707h-323.84c-11.315 0-22.17 4.497-30.17 12.497z" />
<glyph unicode="&#xe911;" glyph-name="catalogcourse" d="M170.667 853.334h426.667v-85.333h-426.667v-426.667h-85.333v426.667c0 47.36 37.973 85.333 85.333 85.333zM341.333 682.667h426.667v-85.333h-426.667v-426.667h-85.333v426.667c0 47.36 37.973 85.333 85.333 85.333zM512 512h341.333c47.36 0 85.333-37.973 85.333-85.333v-341.333c0-47.36-37.973-85.333-85.333-85.333h-341.333c-47.36 0-85.333 37.973-85.333 85.333v341.333c0 47.36 37.973 85.333 85.333 85.333zM597.333 426.667v-341.333l256 170.667-256 170.667z" />
<glyph unicode="&#xe912;" glyph-name="checked" d="M274.672 399.254c-11.696 9.596-26.937 14.805-42.665 14.575-15.728-0.226-30.78-5.871-42.137-15.799s-18.179-23.411-19.097-37.734c-0.918-14.327 4.136-28.442 14.147-39.509l138.367-132.489c5.793-5.547 12.754-9.967 20.466-12.992 7.711-3.029 16.014-4.608 24.41-4.638 8.351-0.043 16.627 1.442 24.336 4.373s14.694 7.245 20.54 12.685l422.583 398.038c5.726 5.376 10.24 11.729 13.278 18.697s4.544 14.413 4.429 21.911c-0.119 7.498-1.852 14.901-5.103 21.788s-7.957 13.122-13.854 18.349c-5.892 5.227-12.855 9.344-20.493 12.116s-15.799 4.144-24.017 4.038c-8.218-0.106-16.333-1.687-23.881-4.654s-14.383-7.261-20.113-12.637l-377.082-355.959-94.115 89.843z" />
<glyph unicode="&#xe913;" glyph-name="chemistry" d="M256 42.667c-33.948 0-66.505 13.487-90.51 37.491s-37.49 56.563-37.49 90.509c0 25.6 7.68 49.493 21.333 69.547l234.667 407.893v77.227c-11.316 0-22.168 4.495-30.17 12.497s-12.497 18.854-12.497 30.17v42.667c0 22.632 8.99 44.337 24.994 60.34s37.708 24.994 60.34 24.994h170.667c22.63 0 44.335-8.99 60.339-24.994s24.994-37.708 24.994-60.34v-42.667c0-11.316-4.497-22.168-12.497-30.17s-18.854-12.497-30.17-12.497v-77.227l234.667-407.893c13.653-20.053 21.333-43.947 21.333-69.547 0-33.946-13.487-66.505-37.491-90.509s-56.563-37.491-90.509-37.491h-512zM213.333 170.667c0-11.315 4.495-22.17 12.497-30.17s18.854-12.497 30.17-12.497h512c11.315 0 22.17 4.497 30.17 12.497s12.497 18.854 12.497 30.17c0 8.96-2.987 17.493-7.68 24.32l-97.707 168.96-107.947-107.947-216.32 216.32-160-277.333c-4.693-6.827-7.68-15.36-7.68-24.32zM554.667 554.667c-11.315 0-22.17-4.495-30.17-12.497s-12.497-18.854-12.497-30.17c0-11.315 4.497-22.17 12.497-30.17s18.854-12.497 30.17-12.497c11.315 0 22.17 4.497 30.17 12.497s12.497 18.854 12.497 30.17c0 11.316-4.497 22.168-12.497 30.17s-18.854 12.497-30.17 12.497z" />
<glyph unicode="&#xe914;" glyph-name="close" d="M695.168 200.837c16.661-16.661 43.678-16.661 60.339 0 16.661 16.666 16.661 43.678 0 60.339l-165.491 165.491 178.876 178.876c16.661 16.663 16.661 43.677 0 60.34s-43.678 16.663-60.339 0l-178.876-178.876-196.549 196.55c-16.662 16.662-43.677 16.662-60.34 0s-16.663-43.677 0-60.34l196.549-196.549-183.164-183.164c-16.662-16.661-16.662-43.678 0-60.339s43.677-16.661 60.34 0l183.163 183.164 165.491-165.491z" />
<glyph unicode="&#xe915;" glyph-name="close-big" d="M130.578 173.248c-24.993-24.99-24.993-65.515 0-90.509s65.516-24.994 90.51 0l253.412 253.414 290.901-290.906c24.994-24.99 65.515-24.99 90.509 0 24.994 24.994 24.994 65.519 0 90.513l-290.901 290.901 289.647 289.645c24.994 24.994 24.994 65.516 0 90.51s-65.515 24.994-90.509 0l-289.647-289.646-252.157 252.156c-24.993 24.994-65.516 24.994-90.51 0s-24.994-65.516 0-90.51l252.156-252.155-253.412-253.414z" />
<glyph unicode="&#xe916;" glyph-name="copy" d="M384 384v42.667c0 33.946 13.486 66.505 37.49 90.51s56.564 37.49 90.51 37.49h42.667v142.080c0 7.582-3.012 14.853-8.371 20.214-5.363 5.361-12.634 8.373-20.215 8.373h-284.16c-7.582 0-14.853-3.012-20.214-8.373s-8.373-12.632-8.373-20.214v-284.16c0-7.582 3.012-14.852 8.373-20.215 5.361-5.359 12.632-8.371 20.214-8.371h142.080zM384 298.667h-142.080c-30.179 0.111-59.089 12.151-80.429 33.489-21.34 21.342-33.379 50.253-33.491 80.431v284.16c0.112 30.179 12.151 59.089 33.491 80.429s50.25 33.379 80.429 33.491h284.16c30.178-0.112 59.089-12.151 80.431-33.491 21.338-21.34 33.378-50.25 33.489-80.429v-142.080h128c33.95 0 66.505-13.486 90.509-37.49s37.491-56.564 37.491-90.51v-256c0-33.95-13.487-66.505-37.491-90.509s-56.559-37.491-90.509-37.491h-256c-33.946 0-66.505 13.487-90.51 37.491s-37.49 56.559-37.49 90.509v128zM481.83 456.837c-8-8-12.497-18.854-12.497-30.17v-256c0-11.315 4.497-22.17 12.497-30.17s18.854-12.497 30.17-12.497h256c11.315 0 22.17 4.497 30.17 12.497s12.497 18.854 12.497 30.17v256c0 11.315-4.497 22.17-12.497 30.17s-18.854 12.497-30.17 12.497h-256c-11.315 0-22.17-4.497-30.17-12.497z" />
<glyph unicode="&#xe917;" glyph-name="economy" d="M810.667 768l-640-640 85.333-85.333 640 640-85.333 85.333zM320 746.667c-33.948 0-66.505-13.486-90.51-37.49s-37.49-56.562-37.49-90.51c0-33.948 13.486-66.505 37.49-90.51 24.005-24.003 56.562-37.49 90.51-37.49s66.505 13.487 90.51 37.49c24.003 24.005 37.49 56.562 37.49 90.51s-13.487 66.505-37.49 90.51c-24.005 24.005-56.562 37.49-90.51 37.49zM746.667 320c-33.946 0-66.505-13.487-90.509-37.491s-37.491-56.563-37.491-90.509c0-33.946 13.487-66.505 37.491-90.509s56.563-37.491 90.509-37.491c33.946 0 66.505 13.487 90.509 37.491s37.491 56.563 37.491 90.509c0 33.946-13.487 66.505-37.491 90.509s-56.563 37.491-90.509 37.491z" />
<glyph unicode="&#xe918;" glyph-name="eye" d="M512 533.334c33.946 0 66.505-13.486 90.509-37.491s37.491-56.563 37.491-90.509-13.487-66.505-37.491-90.509c-24.004-24.004-56.563-37.491-90.509-37.491s-66.505 13.487-90.51 37.491c-24.005 24.004-37.49 56.563-37.49 90.509s13.486 66.505 37.49 90.509c24.005 24.006 56.564 37.491 90.51 37.491zM512 725.334c213.333 0 395.52-132.693 469.333-320-73.813-187.307-256-320-469.333-320s-395.52 132.693-469.333 320c73.813 187.307 256 320 469.333 320zM135.68 405.334c70.4-143.36 215.893-234.667 376.32-234.667s305.92 91.307 376.32 234.667c-70.4 143.36-215.893 234.667-376.32 234.667s-305.92-91.307-376.32-234.667z" />
<glyph unicode="&#xe919;" glyph-name="eye-close" d="M85.333 756.48l54.613 54.187 713.387-713.387-54.187-54.613-131.413 131.413c-49.067-16.213-101.12-24.747-155.733-24.747-213.333 0-395.52 132.693-469.333 320 29.44 75.093 76.373 141.227 136.107 193.707l-93.44 93.44zM512 597.334c33.946 0 66.505-13.486 90.509-37.49s37.491-56.564 37.491-90.51c0-14.933-2.56-29.44-7.253-42.667l-163.413 163.413c13.227 4.693 27.733 7.253 42.667 7.253zM512 789.334c213.333 0 395.52-132.693 469.333-320-34.987-88.747-94.293-165.547-170.667-221.44l-60.587 61.013c58.027 40.107 105.813 94.72 138.24 160.427-70.4 143.36-215.893 234.667-376.32 234.667-46.507 0-92.16-7.68-134.827-21.333l-65.707 65.28c61.44 26.453 129.28 41.387 200.533 41.387zM135.68 469.334c70.4-143.36 215.893-234.667 376.32-234.667 29.44 0 58.453 2.987 85.333 8.96l-97.28 97.707c-61.013 6.4-109.653 55.040-116.053 116.053l-145.067 145.493c-42.24-36.267-77.653-81.493-103.253-133.547z" />
<glyph unicode="&#xe91a;" glyph-name="file" d="M554.667 554.667v234.667l234.667-234.667h-234.667zM256 853.334c-47.36 0-85.333-37.973-85.333-85.333v-682.667c0-22.63 8.99-44.335 24.994-60.339s37.708-24.994 60.34-24.994h512c22.63 0 44.335 8.99 60.339 24.994s24.994 37.709 24.994 60.339v512l-256 256h-341.333z" />
<glyph unicode="&#xe91b;" glyph-name="filter" d="M597.321 426.718v-336.166c1.707-12.796-2.56-26.449-12.373-35.405-16.636-16.64-43.511-16.64-60.147 0l-85.747 85.747c-9.813 9.809-14.078 23.036-12.373 35.409v250.415h-1.278l-245.719 314.838c-14.505 18.345-11.092 45.221 7.252 59.725 8.105 5.972 17.064 9.385 26.449 9.385h597.233c9.387 0 18.347-3.413 26.449-9.385 18.347-14.505 21.76-41.381 7.253-59.725l-245.717-314.838h-1.28z" />
<glyph unicode="&#xe91c;" glyph-name="freetest" d="M810.667 85.334h-554.667c-22.632 0-44.337 8.99-60.34 24.994s-24.994 37.709-24.994 60.339v386.56l-118.187 140.8c-5.973 7.253-9.813 17.067-9.813 27.307 0 11.316 4.495 22.168 12.497 30.17s18.854 12.497 30.17 12.497h725.333c22.63 0 44.335-8.99 60.339-24.994s24.994-37.708 24.994-60.34v-512c0-22.63-8.99-44.335-24.994-60.339s-37.709-24.994-60.339-24.994zM320 640c-5.658 0-11.084-2.248-15.085-6.249s-6.249-9.427-6.249-15.085v-42.667c0-5.658 2.248-11.084 6.249-15.085s9.427-6.249 15.085-6.249h426.667c5.658 0 11.085 2.248 15.087 6.249 3.998 4 6.246 9.427 6.246 15.085v42.667c0 5.658-2.249 11.084-6.246 15.085-4.002 4.001-9.429 6.249-15.087 6.249h-426.667zM320 469.334c-5.658 0-11.084-2.249-15.085-6.246-4.001-4.002-6.249-9.429-6.249-15.087v-42.667c0-5.658 2.248-11.085 6.249-15.087 4-3.998 9.427-6.246 15.085-6.246h426.667c5.658 0 11.085 2.249 15.087 6.246 3.998 4.002 6.246 9.429 6.246 15.087v42.667c0 5.658-2.249 11.085-6.246 15.087-4.002 3.998-9.429 6.246-15.087 6.246h-426.667zM320 298.667c-5.658 0-11.084-2.249-15.085-6.246-4.001-4.002-6.249-9.429-6.249-15.087v-42.667c0-5.658 2.248-11.085 6.249-15.087 4-3.998 9.427-6.246 15.085-6.246h213.333c5.658 0 11.085 2.249 15.087 6.246 3.998 4.002 6.246 9.429 6.246 15.087v42.667c0 5.658-2.249 11.085-6.246 15.087-4.002 3.998-9.429 6.246-15.087 6.246h-213.333z" />
<glyph unicode="&#xe91d;" glyph-name="geography" d="M640 128l-256 90.027v507.307l256-90.027v-507.307zM874.667 810.667c-2.56 0-4.693 0-6.827 0l-227.84-89.6-256 89.6-240.64-81.067c-8.96-2.987-15.36-10.667-15.36-20.48v-645.12c0-5.658 2.248-11.085 6.249-15.087 4-3.998 9.427-6.246 15.085-6.246 2.133 0 4.693 0 6.827 1.28l227.84 88.32 256-89.6 240.64 81.067c8.96 4.267 15.36 10.667 15.36 20.48v645.12c0 5.658-2.249 11.084-6.246 15.085-4.002 4.001-9.429 6.249-15.087 6.249z" />
<glyph unicode="&#xe91e;" glyph-name="arrow-down" d="M481.248 13.105l-230.665 221.795c-16.986 16.332-16.986 42.813 0 59.145s44.525 16.333 61.511 0l157.244-151.197v667.831c0 23.565 19.103 42.662 42.667 42.662s42.666-19.098 42.666-42.662v-667.831l157.246 151.197c16.986 16.333 44.525 16.333 61.51 0s16.986-42.813 0-59.145l-230.663-221.792c-7.763-8.074-18.675-13.098-30.76-13.098s-22.994 5.023-30.756 13.094z" />
<glyph unicode="&#xe91f;" glyph-name="arrow-left" d="M98.438 457.419l221.795 230.665c16.332 16.986 42.813 16.986 59.145 0s16.333-44.525 0-61.511l-151.197-157.244h667.831c23.565 0 42.662-19.103 42.662-42.667s-19.098-42.666-42.662-42.666h-667.831l151.197-157.246c16.333-16.986 16.333-44.525 0-61.51s-42.813-16.986-59.145 0l-221.792 230.663c-8.074 7.763-13.098 18.675-13.098 30.76s5.023 22.994 13.094 30.756z" />
<glyph unicode="&#xe922;" glyph-name="help" d="M642.987 458.667l-38.4-39.253c-30.72-30.72-49.92-56.747-49.92-120.747h-85.333v21.333c0 47.36 19.2 90.027 49.92 120.747l52.907 53.76c15.787 15.36 25.173 36.693 25.173 60.16 0 47.36-38.4 85.333-85.333 85.333-22.63 0-44.335-8.99-60.339-24.994s-24.994-37.708-24.994-60.34h-85.333c0 45.264 17.981 88.673 49.987 120.68s75.415 49.987 120.68 49.987c45.265 0 88.674-17.981 120.678-49.987 32.009-32.006 49.988-75.416 49.988-120.68 0-37.547-15.36-71.253-39.68-96zM554.667 128h-85.333v85.333h85.333v-85.333zM512 853.334c-56.030 0-111.513-11.036-163.278-32.478s-98.801-52.87-138.421-92.49c-80.015-80.016-124.968-188.54-124.968-301.699 0-113.161 44.952-221.683 124.968-301.7 39.62-39.62 86.655-71.044 138.421-92.489 51.765-21.44 107.248-32.478 163.278-32.478 113.161 0 221.683 44.954 301.7 124.966 80.013 80.017 124.966 188.54 124.966 301.7 0 235.947-192 426.667-426.667 426.667z" />
<glyph unicode="&#xe923;" glyph-name="history" d="M256 725.334h512c11.315 0 22.17-4.495 30.17-12.497s12.497-18.854 12.497-30.17c0-11.316-4.497-22.168-12.497-30.17s-18.854-12.497-30.17-12.497h-512c-11.316 0-22.168 4.495-30.17 12.497s-12.497 18.854-12.497 30.17c0 11.316 4.495 22.168 12.497 30.17s18.854 12.497 30.17 12.497zM896 853.334v-85.333h-768v85.333h768zM640 597.334h85.333v-597.333h-85.333v597.333zM298.667 597.334h85.333v-597.333h-85.333v597.333zM469.333 597.334h85.333v-597.333h-85.333v597.333z" />
<glyph unicode="&#xe924;" glyph-name="info" d="M469.333 554.667h85.333v85.333h-85.333v-85.333zM512 85.334c-188.16 0-341.333 153.173-341.333 341.333s153.173 341.333 341.333 341.333c188.16 0 341.333-153.173 341.333-341.333s-153.173-341.333-341.333-341.333zM512 853.334c-56.030 0-111.513-11.036-163.278-32.478s-98.801-52.87-138.421-92.49c-80.015-80.016-124.968-188.54-124.968-301.699 0-113.161 44.952-221.683 124.968-301.7 39.62-39.62 86.655-71.044 138.421-92.489 51.765-21.44 107.248-32.478 163.278-32.478 113.161 0 221.683 44.954 301.7 124.966 80.013 80.017 124.966 188.54 124.966 301.7 0 56.030-11.038 111.513-32.478 163.278-21.444 51.766-52.868 98.801-92.489 138.421s-86.656 71.048-138.423 92.49c-51.763 21.442-107.247 32.478-163.277 32.478zM469.333 213.334h85.333v256h-85.333v-256z" />
<glyph unicode="&#xe925;" glyph-name="informatics" d="M571.597 810.667l84.271-17.067-160.798-750.933-84.27 17.067 160.797 750.933zM859.661 426.667l-154.351 153.173v120.747l276.023-273.92-276.023-273.493v120.747l154.351 152.747zM85.333 426.667l276.023 273.92v-120.747l-154.349-153.173 154.349-152.747v-120.747l-276.023 273.493z" />
<glyph unicode="&#xe926;" glyph-name="link" d="M459.93 374.597c15.138-14.404 15.138-38.042 0-52.446-14.404-14.4-38.041-14.4-52.444 0-72.015 72.017-72.015 189.086 0 261.103l130.737 130.735c72.013 72.015 189.086 72.015 261.099 0 72.017-72.015 72.017-189.086 0-261.099l-55.027-55.027c0.371 30.281-4.433 60.565-14.771 89.37l17.357 17.728c43.58 43.209 43.58 113.378 0 156.587-43.209 43.578-113.378 43.578-156.587 0l-130.364-130.366c-43.581-43.211-43.581-113.376 0-156.585zM564.070 531.181c14.404 14.403 38.042 14.403 52.446 0 72.013-72.015 72.013-189.084 0-261.101l-130.739-130.735c-72.013-72.017-189.084-72.017-261.099 0-72.015 72.013-72.015 189.086 0 261.099l55.027 55.027c-0.369-30.281 4.431-60.565 14.772-89.741l-17.357-17.357c-43.578-43.209-43.578-113.378 0-156.587 43.209-43.58 113.378-43.58 156.587 0l130.364 130.364c43.58 43.213 43.58 113.378 0 156.587-15.138 14.404-15.138 38.041 0 52.444z" />
<glyph unicode="&#xe927;" glyph-name="literature" d="M768-0c22.63 0 44.335 8.99 60.339 24.994s24.994 37.709 24.994 60.339v682.667c0 47.36-38.4 85.333-85.333 85.333h-256v-298.667l-106.667 64-106.667-64v298.667h-42.667c-22.632 0-44.337-8.99-60.34-24.994s-24.994-37.708-24.994-60.34v-682.667c0-22.63 8.99-44.335 24.994-60.339s37.708-24.994 60.34-24.994h512z" />
<glyph unicode="&#xe928;" glyph-name="loader" d="M947.119 439.842c-0.525 11.324-5.53 21.973-13.914 29.611-8.38 7.633-19.452 11.622-30.78 11.093-11.324-0.525-21.978-5.534-29.615-13.914-7.637-8.384-11.631-19.452-11.102-30.78 3.588-76.433-18.607-151.859-63.031-214.17-44.42-62.315-108.489-107.9-181.922-129.442s-151.974-17.792-223.010 10.65c-71.037 28.446-130.452 79.927-168.708 146.193-38.257 66.261-53.136 143.458-42.25 219.2 10.886 75.74 46.906 145.632 102.279 198.456s126.886 85.516 203.062 92.83c76.177 7.313 152.597-11.176 216.994-52.501 4.723-3.029 10.001-5.099 15.526-6.089s11.196-0.883 16.678 0.316c5.487 1.2 10.679 3.468 15.287 6.674 4.612 3.207 8.542 7.29 11.575 12.016 3.029 4.726 5.099 10.002 6.089 15.528 0.994 5.525 0.887 11.192-0.311 16.676s-3.465 10.678-6.673 15.286c-3.204 4.608-7.287 8.538-12.015 11.568-80.503 51.628-176.021 74.714-271.228 65.553-95.209-9.161-184.584-50.038-253.783-116.071s-114.21-153.392-127.809-248.061c-13.6-94.665 5.001-191.151 52.817-273.971 47.816-82.816 122.074-147.17 210.857-182.724 88.785-35.558 186.944-40.256 278.729-13.342 91.789 26.91 171.874 83.874 227.413 161.745 55.535 77.871 83.302 172.134 78.844 267.669z" />
<glyph unicode="&#xe929;" glyph-name="lock" d="M270.223 512h42.667v56.889c0 109.791 89.319 199.111 199.111 199.111 109.794 0 199.113-89.32 199.113-199.111v-56.889h42.667c7.859 0 14.221-6.362 14.221-14.221v-355.558c0-31.373-25.515-56.887-56.887-56.887h-398.225c-31.375 0-56.888 25.515-56.888 56.887v355.558c0 7.859 6.361 14.221 14.223 14.221zM469.414 214.904c-0.444-4.015 0.849-8.043 3.541-11.055 2.697-3.017 6.558-4.736 10.598-4.736h56.892c4.041 0 7.902 1.719 10.594 4.736 2.697 3.012 3.989 7.040 3.541 11.055l-8.973 80.678c14.571 10.598 23.279 27.362 23.279 45.751 0 31.373-25.515 56.887-56.887 56.887-31.377 0-56.892-25.51-56.892-56.887 0-18.389 8.708-35.153 23.279-45.751l-8.973-80.678zM398.223 512h227.557v56.889c0 62.736-51.042 113.777-113.779 113.777s-113.777-51.041-113.777-113.777v-56.889z" />
<glyph unicode="&#xe92a;" glyph-name="math" d="M256 853.334c-94.257 0-170.667-76.41-170.667-170.667v-512c0-94.255 76.41-170.667 170.667-170.667h512c94.255 0 170.667 76.412 170.667 170.667v512c0 94.257-76.412 170.667-170.667 170.667h-512zM533.333 554.667c35.345 0 64 28.654 64 64s-28.655 64-64 64c-35.345 0-64-28.654-64-64s28.655-64 64-64zM533.333 170.667c35.345 0 64 28.655 64 64s-28.655 64-64 64c-35.345 0-64-28.655-64-64s28.655-64 64-64zM298.667 426.667c0 23.565 19.103 42.667 42.667 42.667h341.333c23.565 0 42.667-19.102 42.667-42.667s-19.102-42.667-42.667-42.667h-341.333c-23.564 0-42.667 19.102-42.667 42.667z" />
<glyph unicode="&#xe92b;" glyph-name="music" d="M938.667 810.667v-533.333c0-39.607-15.731-77.589-43.738-105.596s-65.988-43.738-105.596-43.738c-39.607 0-77.589 15.731-105.596 43.738s-43.738 65.988-43.738 105.596c0 39.607 15.731 77.589 43.738 105.596s65.988 43.738 105.596 43.738c23.040 0 44.8-5.12 64-14.507v250.453l-426.667-90.88v-379.733c0-39.607-15.733-77.589-43.739-105.596s-65.989-43.738-105.594-43.738c-39.606 0-77.589 15.731-105.594 43.738s-43.739 65.988-43.739 105.596c0 39.607 15.733 77.589 43.739 105.596s65.989 43.738 105.594 43.738c23.040 0 44.8-5.12 64-14.507v355.84l597.333 128z" />
<glyph unicode="&#xe92c;" glyph-name="music-off" d="M128 713.814l54.613 54.187 713.387-713.387-54.187-54.613-415.147 415.147v-223.147c0-39.607-15.733-77.589-43.739-105.596s-65.989-43.738-105.594-43.738c-39.606 0-77.589 15.731-105.594 43.738s-43.739 65.988-43.739 105.596c0 39.607 15.733 77.589 43.739 105.596s65.989 43.738 105.594 43.738c23.040 0 44.8-5.12 64-14.507v173.653l-213.333 213.333zM938.667 810.667v-533.333c0-42.667-18.347-81.92-47.787-109.227l-210.773 210.773c27.307 29.44 66.56 47.787 109.227 47.787 23.040 0 44.8-5.12 64-14.507v250.453l-376.747-80.213-107.093 107.093 569.173 121.173z" />
<glyph unicode="&#xe92d;" glyph-name="pen" d="M826.022 708.384c-13.914 13.937-31.846 23.094-51.238 26.161-19.396 3.067-39.258-0.112-56.747-9.084-0.99 1.421-10.244 11.697-13.879 15.385-17.318 17.388-40.789 27.154-65.254 27.154-24.469 0-47.936-9.766-65.259-27.154l-164.306-165.334c-5.631-5.668-8.795-13.355-8.795-21.369s3.164-15.701 8.795-21.37c5.679-5.579 13.3-8.702 21.236-8.702s15.561 3.123 21.235 8.702l164.309 165.334c6.042 6.078 14.238 9.492 22.784 9.492 8.542 0 16.738-3.414 22.784-9.492l10.991-11.093-66.833-67.221c-2.914-2.946-4.553-6.935-4.553-11.093s1.638-8.147 4.553-11.093l110.118-110.656c2.918-2.931 6.874-4.578 10.995-4.578s8.077 1.647 10.991 4.578l88.073 88.622c17.489 17.62 27.311 41.504 27.311 66.406s-9.822 48.786-27.311 66.406zM572.809 564.392c-2.923 2.933-6.882 4.58-11.012 4.58-4.126 0-8.085-1.647-11.008-4.58l-247.12-248.727c-4.345-4.361-7.792-9.545-10.144-15.249s-3.563-11.823-3.563-17.997c0-6.178 1.21-12.292 3.563-18.001 2.352-5.705 5.799-10.884 10.144-15.249l66.083-66.496c4.336-4.373 9.486-7.842 15.156-10.206 5.67-2.368 11.748-3.588 17.886-3.588s12.216 1.22 17.886 3.588c5.67 2.364 10.818 5.833 15.157 10.206l247.151 248.695c2.914 2.94 4.548 6.925 4.548 11.076 0 4.156-1.634 8.141-4.548 11.081l-110.178 110.866zM248.306 235.042c2.427-0.713 4.637-2.031 6.423-3.831l103.36-104.038c1.789-1.796 3.099-4.019 3.808-6.46 0.708-2.445 0.792-5.026 0.244-7.509-0.548-2.487-1.711-4.791-3.38-6.703s-3.791-3.366-6.168-4.233l-161.784-58.756c-2.694-0.934-5.593-1.097-8.373-0.469-2.78 0.631-5.331 2.027-7.367 4.032-2.016 2.031-3.417 4.591-4.040 7.394-0.622 2.799-0.44 5.717 0.525 8.414l58.423 162.799c0.861 2.389 2.308 4.527 4.208 6.204 1.9 1.681 4.189 2.85 6.658 3.401 2.469 0.555 5.036 0.469 7.463-0.243z" />
<glyph unicode="&#xe92e;" glyph-name="people" d="M699.733 176.354v-91.021h-657.067v91.021c0 0 0 182.046 328.533 182.046s328.533-182.046 328.533-182.046zM535.467 608.709c0 31.504-9.634 62.301-27.682 88.496-18.052 26.195-43.708 46.611-73.724 58.667-30.014 12.056-63.043 15.211-94.908 9.065s-61.134-21.317-84.107-43.594c-22.973-22.277-38.618-50.659-44.956-81.558s-3.085-62.927 9.347-92.033c12.433-29.106 33.488-53.984 60.501-71.485s58.773-26.846 91.262-26.846c43.566 0 85.346 16.781 116.156 46.656 30.805 29.871 48.111 70.387 48.111 112.632zM696.917 358.4c28.851-21.653 52.459-49.173 69.163-80.623 16.704-31.454 26.099-66.069 27.52-101.423v-91.021h187.733v91.021c0 0 0 165.205-284.416 182.046zM652.8 767.998c-32.303 0.175-63.898-9.191-90.581-26.851 28.51-38.627 43.84-84.937 43.84-132.437s-15.33-93.81-43.84-132.438c26.684-17.66 58.278-27.025 90.581-26.85 43.567 0 85.346 16.781 116.156 46.656 30.805 29.871 48.111 70.387 48.111 112.632s-17.306 82.762-48.111 112.634c-30.81 29.872-72.589 46.654-116.156 46.654z" />
<glyph unicode="&#xe92f;" glyph-name="physics" d="M490.667 490.432c11.255 0 22.046-4.467 30.003-12.429 7.962-7.957 12.429-18.748 12.429-30.003s-4.467-22.046-12.429-30.003c-7.957-7.962-18.748-12.429-30.003-12.429s-22.046 4.467-30.003 12.429c-7.962 7.957-12.429 18.748-12.429 30.003s4.467 22.046 12.429 30.003c7.957 7.962 18.748 12.429 30.003 12.429zM160.535 778.132c60.68 60.68 192.223 33.522 330.132-56.861 137.907 90.383 269.453 117.54 330.133 56.861 60.676-60.68 33.519-192.223-56.862-330.132 90.381-137.907 117.538-269.453 56.862-330.133-60.681-60.676-192.226-33.519-330.133 56.862-137.908-90.381-269.452-117.538-330.132-56.862-60.68 60.681-33.522 192.226 56.861 330.133-90.383 137.908-117.54 269.452-56.861 330.132zM640.879 598.214c25.886-26.309 49.647-53.041 71.714-79.775 58.56 90.383 79.774 168.036 47.949 199.437-31.398 31.825-109.052 10.609-199.437-47.95 26.735-22.065 53.466-45.828 79.774-71.712zM340.453 297.788c-25.885 26.308-49.647 53.039-71.712 79.774-58.558-90.385-79.775-168.038-47.95-199.437 31.401-31.825 109.053-10.611 199.437 47.949-26.733 22.067-53.466 45.828-79.775 71.714zM220.791 717.876c-31.825-31.401-10.609-109.053 47.95-199.437 22.065 26.733 45.828 53.466 71.712 79.775 26.309 25.885 53.041 49.647 79.775 71.712-90.383 58.558-168.036 79.775-199.437 47.95zM400.708 358.042c29.705-29.705 60.254-56.862 89.959-81.050 29.705 24.188 60.254 51.345 89.958 81.050s56.862 60.254 81.050 89.958c-24.188 29.705-51.345 60.254-81.050 89.959-29.705 29.703-60.254 56.861-89.958 81.048-29.705-24.187-60.254-51.345-89.959-81.048-29.703-29.705-56.861-60.254-81.048-89.959 24.187-29.705 51.345-60.254 81.048-89.958zM760.542 178.125c31.825 31.398 10.611 109.052-47.949 199.437-22.067-26.735-45.828-53.466-71.714-79.774-26.308-25.886-53.039-49.647-79.774-71.714 90.385-58.56 168.038-79.774 199.437-47.949z" />
<glyph unicode="&#xe930;" glyph-name="plus" d="M213.334 469.338c-23.564 0-42.667-19.102-42.667-42.667s19.103-42.667 42.667-42.667h256v-256c0-23.565 19.102-42.667 42.667-42.667s42.667 19.102 42.667 42.667v256h256c23.565 0 42.667 19.102 42.667 42.667s-19.102 42.667-42.667 42.667h-256v256c0 23.564-19.102 42.667-42.667 42.667s-42.667-19.102-42.667-42.667v-256h-256z" />
<glyph unicode="&#xe931;" glyph-name="profile" d="M512 768c45.265 0 88.674-17.981 120.678-49.987 32.009-32.006 49.988-75.416 49.988-120.68s-17.98-88.674-49.988-120.678c-32.004-32.009-75.413-49.988-120.678-49.988s-88.673 17.98-120.68 49.988c-32.006 32.004-49.987 75.415-49.987 120.678s17.981 88.673 49.987 120.68c32.006 32.006 75.415 49.987 120.68 49.987zM512 341.334c188.587 0 341.333-76.373 341.333-170.667v-85.333h-682.667v85.333c0 94.293 152.747 170.667 341.333 170.667z" />
<glyph unicode="&#xe938;" glyph-name="robotics" d="M512 853.334c22.63 0 44.335-8.99 60.339-24.994s24.994-37.708 24.994-60.34c0-31.573-17.067-59.307-42.667-73.813v-54.187h42.667c79.211 0 155.179-31.467 211.187-87.477 56.013-56.011 87.479-131.979 87.479-211.189h42.667c11.315 0 22.17-4.497 30.17-12.497s12.497-18.854 12.497-30.17v-128c0-11.315-4.497-22.17-12.497-30.17s-18.854-12.497-30.17-12.497h-42.667v-42.667c0-22.63-8.99-44.335-24.994-60.339s-37.709-24.994-60.339-24.994h-597.333c-22.632 0-44.337 8.99-60.34 24.994s-24.994 37.709-24.994 60.339v42.667h-42.667c-11.316 0-22.168 4.497-30.17 12.497s-12.497 18.854-12.497 30.17v128c0 11.315 4.495 22.17 12.497 30.17s18.854 12.497 30.17 12.497h42.667c0 79.211 31.467 155.179 87.477 211.189s131.978 87.477 211.189 87.477h42.667v54.187c-25.6 14.507-42.667 42.24-42.667 73.813 0 22.632 8.99 44.337 24.994 60.34s37.709 24.994 60.339 24.994zM320 384c-28.29 0-55.421-11.238-75.425-31.241-20.004-20.006-31.242-47.138-31.242-75.426s11.238-55.42 31.242-75.426c20.004-20.002 47.135-31.241 75.425-31.241s55.421 11.238 75.425 31.241c20.004 20.006 31.242 47.138 31.242 75.426s-11.238 55.42-31.242 75.426c-20.004 20.002-47.135 31.241-75.425 31.241zM704 384c-28.288 0-55.42-11.238-75.426-31.241-20.002-20.006-31.241-47.138-31.241-75.426s11.238-55.42 31.241-75.426c20.006-20.002 47.138-31.241 75.426-31.241s55.42 11.238 75.426 31.241c20.002 20.006 31.241 47.138 31.241 75.426s-11.238 55.42-31.241 75.426c-20.006 20.002-47.138 31.241-75.426 31.241z" />
<glyph unicode="&#xe939;" glyph-name="russianl" d="M885.833 808.891c-6.754 3.247-14.818 1.965-20.22-3.221-41.229-39.534-112.26-97.98-216.555-151.906-4.561-2.36-7.893-6.557-9.152-11.532-8.512-33.581-25.212-70.234-49.63-108.94l-9.937-15.752 18.53 80.649c1.51 6.576-0.798 13.443-5.973 17.775-5.18 4.332-12.352 5.396-18.56 2.75l-2.146-0.903c-210.429-88.514-272.617-225.618-290.958-299.461-6.365-25.626-9.54-51.004-9.432-75.439 0.042-9.429 0.574-18.411 1.584-26.82l-140.248-142.916c-6.783-6.912-6.857-17.954-0.165-24.956 3.521-3.686 8.247-5.551 12.989-5.551 4.268 0 8.545 1.515 11.965 4.57l385.378 345.882c1.89-0.128-219.433-231.795-217.429-231.795 30.040 0 71.535 13.837 120 40 65.348 35.29 138.385 89.442 211.204 156.604 5.982 5.513 7.501 14.362 3.703 21.555s-11.964 10.94-19.9 9.109l-45.129-10.351 15.77 9.933c44.011 27.729 85.158 45.41 122.291 52.557 4.019 0.777 7.654 2.897 10.3 6.016 87.347 102.908 124.326 204.591 139.964 271.769 5.683 24.417 9.677 48.835 11.849 72.575 0.678 7.456-3.341 14.555-10.095 17.801z" />
<glyph unicode="&#xe93a;" glyph-name="chevron-down" d="M491.921 256.001c8.384-0.049 16.695 1.565 24.457 4.748s14.818 7.872 20.77 13.8l254.786 255.824c5.939 5.965 10.65 13.043 13.865 20.834s4.868 16.141 4.868 24.576c0 8.431-1.654 16.785-4.868 24.576s-7.925 14.869-13.865 20.834c-5.939 5.961-12.989 10.692-20.749 13.918-7.759 3.23-16.076 4.89-24.475 4.89s-16.716-1.66-24.475-4.89c-7.76-3.226-14.81-7.957-20.749-13.918l-209.564-211.695-210.197 203.379c-5.858 6.541-13.001 11.802-20.975 15.445s-16.614 5.598-25.378 5.734c-8.759 0.141-17.455-1.536-25.545-4.924-8.085-3.392-15.39-8.418-21.453-14.771s-10.752-13.892-13.781-22.148c-3.029-8.256-4.326-17.054-3.819-25.835 0.512-8.785 2.825-17.365 6.788-25.212 3.968-7.846 9.502-14.788 16.26-20.386l254.788-246.872c11.648-11.276 27.136-17.679 43.311-17.908z" />
<glyph unicode="&#xe93b;" glyph-name="search" d="M648.789 229.675l131.84-131.669c16.64-16.896 43.52-16.896 60.16 0 16.725 16.853 16.725 44.117 0 61.013l-131.413 131.413c37.12 49.835 59.179 111.616 59.179 178.603 0 165.12-133.845 298.965-298.923 298.965-165.12 0-298.965-133.845-298.965-298.965s133.845-298.965 298.965-298.965c67.2 0 129.237 22.187 179.157 59.605zM469.589 255.488c-117.888 0-213.504 95.573-213.504 213.547 0 117.931 95.573 213.547 213.547 213.547 117.931 0 213.504-95.573 213.504-213.547 0-117.931-95.573-213.547-213.461-213.547h-0.085z" />
<glyph unicode="&#xe93c;" glyph-name="socialscience" d="M537.429 806.381c113.873-51.777 230.306-105.642 343.748-157.42 6.4-2.923 14.502-5.011 14.502-13.362s-8.102-10.022-14.502-12.944c-113.442-51.777-228.595-104.807-342.895-156.168-17.485-8.768-35.401-8.768-52.885 0-114.725 51.778-229.451 104.39-343.75 156.585-5.971 2.505-13.648 4.593-13.648 12.945 0 7.516 7.677 9.604 13.221 12.109 114.726 52.612 231.584 106.477 346.736 158.672 12.369 5.428 36.676 5.011 49.472-0.417zM511.842 42.667c-8.533 0-14.502 3.341-26.445 7.518-114.725 51.776-229.451 104.388-343.323 156.582-5.971 2.923-14.074 4.595-14.074 13.363 0 8.35 8.103 10.018 14.501 12.945 18.766 8.768 37.958 17.536 56.723 26.304 19.192 8.35 37.958 8.35 56.723-0.418 76.342-34.658 152.256-69.312 228.171-103.97 18.765-8.768 37.534-8.354 56.299 0 75.913 35.072 151.829 69.73 227.319 104.388 18.765 8.35 37.103 8.768 55.014 0.418 20.471-8.768 40.516-18.372 60.561-27.558 2.987-1.254 5.973-2.923 8.529-5.013 5.547-4.173 5.547-11.273 0-14.613-3.409-2.505-7.249-4.591-11.089-6.263-113.015-53.030-226.889-103.97-340.762-155.332-8.529-4.173-20.045-8.35-28.147-8.35zM511.842 250.612c-4.267 0-19.196 4.177-27.298 7.1-114.298 52.612-228.597 104.388-342.043 157.001-5.971 2.505-14.501 4.591-14.501 12.945 0 8.768 8.53 10.436 14.927 13.359 19.192 9.186 38.384 17.958 57.576 26.726 18.339 7.932 36.678 7.932 55.444-1.254 75.915-34.24 152.683-69.312 229.451-104.388 17.485-7.936 35.401-7.936 53.312 0 76.766 35.49 153.536 70.566 230.729 105.643 17.489 7.932 35.401 7.932 53.312 0 20.045-9.186 40.516-18.372 60.561-27.558 2.56-1.254 5.547-2.509 8.102-4.595 5.973-4.591 5.973-10.854-0.427-15.868-2.129-1.668-5.116-2.923-7.676-4.173-115.575-53.449-230.302-105.643-345.455-157.837-8.102-3.759-22.605-7.1-26.014-7.1z" />
<glyph unicode="&#xe93e;" glyph-name="star-filled" d="M492.629 811.336c7.625 16.53 31.117 16.53 38.741 0l96.004-208.138c3.11-6.737 9.493-11.376 16.862-12.25l227.618-26.988c18.078-2.143 25.34-24.488 11.972-36.847l-168.282-155.626c-5.449-5.035-7.889-12.54-6.443-19.819l44.672-224.819c3.546-17.852-15.458-31.663-31.343-22.771l-200.013 111.957c-6.473 3.622-14.366 3.622-20.838 0l-200.011-111.957c-15.885-8.892-34.892 4.919-31.344 22.771l44.671 224.819c1.446 7.279-0.993 14.784-6.44 19.819l-168.284 155.626c-13.365 12.36-6.105 34.704 11.972 36.847l227.619 26.988c7.368 0.873 13.752 5.512 16.86 12.25l96.006 208.138z" />
<glyph unicode="&#xe93f;" glyph-name="student" d="M522.581 766.028l398.097-155.308c5.397-2.096 10.014-5.763 13.227-10.509s4.873-10.344 4.757-16.042c-0.119-5.699-2.010-11.226-5.414-15.84-3.409-4.614-8.171-8.094-13.649-9.974l-398.268-138.041c-3.029-1.071-6.225-1.617-9.446-1.617-3.217 0.009-6.413 0.559-9.442 1.617l-331.76 115.072v-169.335c0-11.115-4.496-21.777-12.498-29.641-8.003-7.859-18.856-12.275-30.173-12.275s-22.171 4.416-30.173 12.275c-8.003 7.863-12.498 18.526-12.498 29.641v204.711c0.269 2.85 0.861 5.662 1.764 8.383-0.165 0.719-0.497 1.39-0.829 2.060-0.468 0.946-0.935 1.891-0.935 2.97-0.116 5.698 1.543 11.294 4.757 16.039s7.827 8.411 13.222 10.507l398.271 155.308c6.741 2.63 14.251 2.63 20.992 0zM512.055 357.662l217.911 75.729c4.288 1.481 8.879 1.933 13.385 1.314s8.798-2.291 12.506-4.877c3.712-2.581 6.741-6.003 8.828-9.975 2.086-3.968 3.174-8.371 3.174-12.843v-139.716c-0.009-5.777-1.839-11.413-5.244-16.128-3.405-4.71-8.209-8.273-13.76-10.193l-170.688-59.238c-42.871-14.758-89.579-14.758-132.454 0l-170.685 59.238c-5.55 1.92-10.357 5.483-13.76 10.193-3.404 4.715-5.235 10.351-5.242 16.128v139.716c-0.003 4.471 1.085 8.875 3.172 12.843 2.088 3.972 5.114 7.394 8.826 9.975 3.712 2.586 8 4.258 12.506 4.877s9.097 0.166 13.388-1.314l218.138-75.729z" />
<glyph unicode="&#xe940;" glyph-name="video" d="M917.321 661.651c-1.869 10.598-7.138 20.331-15.036 27.776s-18.014 12.213-28.864 13.606c-225.724 29.734-454.473 29.734-680.194 0-10.85-1.386-20.964-6.147-28.864-13.587s-13.168-17.168-15.037-27.761c-28.434-155.423-28.434-314.582 0-470 1.868-10.598 7.136-20.331 15.034-27.776s18.013-12.215 28.867-13.606c112.757-14.857 226.397-22.306 340.162-22.302 113.745 0 227.362 7.45 340.096 22.302 10.859 1.387 20.975 6.153 28.873 13.598 7.902 7.445 13.167 17.182 15.031 27.785 28.395 155.413 28.369 314.56-0.068 469.967zM398.311 326.447v200.406c0.294 5.827 2.086 11.485 5.209 16.446s7.474 9.064 12.648 11.924c5.174 2.86 11.002 4.385 16.937 4.432 5.939 0.047 11.789-1.386 17.007-4.164l199.919-100.187c5.495-2.586 10.133-6.647 13.38-11.716s4.971-10.935 4.971-16.922c0-5.986-1.724-11.853-4.971-16.922s-7.885-9.131-13.38-11.716l-199.919-100.186c-5.214-2.778-11.063-4.211-16.998-4.164-5.935 0.043-11.759 1.566-16.932 4.42-5.173 2.859-9.525 6.955-12.65 11.913s-4.921 10.611-5.221 16.435z" />
<glyph unicode="&#xe942;" glyph-name="volume" d="M587.853 768v-80.176c109.606-33.472 189.628-137.779 189.628-261.157s-80.021-227.298-189.628-260.766v-80.567c151.701 35.418 265.481 174.754 265.481 341.333s-113.779 305.916-265.481 341.333zM682.667 426.667c0 68.89-37.926 128.049-94.814 156.85v-312.532c56.887 27.635 94.814 87.181 94.814 155.682zM170.667 543.429v-233.523h151.704l189.629-194.603v622.729l-189.629-194.603h-151.704z" />
<glyph unicode="&#xe943;" glyph-name="volume-mute" d="M512 730.074l-79.266-79.265 79.266-79.265v158.53zM218.833 768l-48.166-48.166 179.389-179.389h-179.389v-227.557h151.704l189.629-189.628v255.241l161.186-161.566c-25.412-19.341-53.854-35.268-85.333-44.373v-78.507c52.335 12.139 99.746 36.032 139.567 68.646l77.747-77.367 48.166 48.166-634.501 634.5zM777.481 426.667c0-35.652-7.586-69.026-20.48-100.126l57.267-57.267c24.653 47.027 39.066 100.506 39.066 157.393 0 162.323-113.779 298.098-265.481 332.611v-78.128c109.606-32.616 189.628-134.257 189.628-254.483zM682.667 426.667c0 67.127-37.926 124.776-94.814 152.841v-83.815l92.919-92.919c1.894 7.586 1.894 15.927 1.894 23.893z" />
</font>
</defs>
</svg>
